  0
SECTION
  2
HEADER
  9
$ACADVER
  1
AC1014
  9
$ACADMAINTVER
 70
         0
  9
$DWGCODEPAGE
  3
DOS850
  9
$INSBASE
 10
0.0
 20
0.0
 30
0.0
  9
$EXTMIN
 10
58.4226379246
 20
-13.1505059921
 30
0.0
  9
$EXTMAX
 10
83.8384412321
 20
4.8285728337
 30
0.0
  9
$LIMMIN
 10
0.0
 20
0.0
  9
$LIMMAX
 10
0.0
 20
0.0
  9
$ORTHOMODE
 70
         0
  9
$REGENMODE
 70
         1
  9
$FILLMODE
 70
         1
  9
$QTEXTMODE
 70
         0
  9
$MIRRTEXT
 70
         1
  9
$DRAGMODE
 70
         2
  9
$LTSCALE
 40
1.0
  9
$OSMODE
 70
         0
  9
$ATTMODE
 70
         1
  9
$TEXTSIZE
 40
0.125
  9
$TRACEWID
 40
0.05
  9
$TEXTSTYLE
  7
STANDARD
  9
$CLAYER
  8
0
  9
$CELTYPE
  6
CONTINUOUS
  9
$CECOLOR
 62
         3
  9
$CELTSCALE
 40
1.0
  9
$DELOBJ
 70
         1
  9
$DISPSILH
 70
         0
  9
$DIMSCALE
 40
1.0
  9
$DIMASZ
 40
0.18
  9
$DIMEXO
 40
0.0625
  9
$DIMDLI
 40
0.38
  9
$DIMRND
 40
0.0
  9
$DIMDLE
 40
0.0
  9
$DIMEXE
 40
0.25
  9
$DIMTP
 40
0.01
  9
$DIMTM
 40
-0.01
  9
$DIMTXT
 40
0.125
  9
$DIMCEN
 40
0.09
  9
$DIMTSZ
 40
0.0
  9
$DIMTOL
 70
         0
  9
$DIMLIM
 70
         0
  9
$DIMTIH
 70
         1
  9
$DIMTOH
 70
         1
  9
$DIMSE1
 70
         0
  9
$DIMSE2
 70
         0
  9
$DIMTAD
 70
         0
  9
$DIMZIN
 70
         0
  9
$DIMBLK
  1

  9
$DIMASO
 70
         1
  9
$DIMSHO
 70
         1
  9
$DIMPOST
  1

  9
$DIMAPOST
  1

  9
$DIMALT
 70
         0
  9
$DIMALTD
 70
         2
  9
$DIMALTF
 40
25.4
  9
$DIMLFAC
 40
1.0
  9
$DIMTOFL
 70
         0
  9
$DIMTVP
 40
0.0
  9
$DIMTIX
 70
         0
  9
$DIMSOXD
 70
         0
  9
$DIMSAH
 70
         0
  9
$DIMBLK1
  1

  9
$DIMBLK2
  1

  9
$DIMSTYLE
  2
STANDARD
  9
$DIMCLRD
 70
         0
  9
$DIMCLRE
 70
         0
  9
$DIMCLRT
 70
         3
  9
$DIMTFAC
 40
1.0
  9
$DIMGAP
 40
0.09
  9
$DIMJUST
 70
         0
  9
$DIMSD1
 70
         0
  9
$DIMSD2
 70
         0
  9
$DIMTOLJ
 70
         1
  9
$DIMTZIN
 70
         0
  9
$DIMALTZ
 70
         0
  9
$DIMALTTZ
 70
         0
  9
$DIMFIT
 70
         3
  9
$DIMUPT
 70
         0
  9
$DIMUNIT
 70
         2
  9
$DIMDEC
 70
         4
  9
$DIMTDEC
 70
         4
  9
$DIMALTU
 70
         2
  9
$DIMALTTD
 70
         2
  9
$DIMTXSTY
  7
STANDARD
  9
$DIMAUNIT
 70
         0
  9
$LUNITS
 70
         2
  9
$LUPREC
 70
        10
  9
$SKETCHINC
 40
0.1
  9
$FILLETRAD
 40
0.0
  9
$AUNITS
 70
         0
  9
$AUPREC
 70
         0
  9
$MENU
  1
acad
  9
$ELEVATION
 40
0.0
  9
$PELEVATION
 40
0.0
  9
$THICKNESS
 40
0.0
  9
$LIMCHECK
 70
         0
  9
$BLIPMODE
 70
         1
  9
$CHAMFERA
 40
0.0
  9
$CHAMFERB
 40
0.0
  9
$CHAMFERC
 40
0.0
  9
$CHAMFERD
 40
0.0
  9
$SKPOLY
 70
         0
  9
$TDCREATE
 40
0.000000000
  9
$TDUPDATE
 40
0.000000000
  9
$TDINDWG
 40
0.0000000000
  9
$TDUSRTIMER
 40
0.0000000000
  9
$USRTIMER
 70
         1
  9
$ANGBASE
 50
0.0
  9
$ANGDIR
 70
         0
  9
$PDMODE
 70
         2
  9
$PDSIZE
 40
0.0
  9
$PLINEWID
 40
0.0
  9
$COORDS
 70
         0
  9
$SPLFRAME
 70
         0
  9
$SPLINETYPE
 70
         6
  9
$SPLINESEGS
 70
         8
  9
$ATTDIA
 70
         0
  9
$ATTREQ
 70
         1
  9
$HANDLING
 70
         1
  9
$HANDSEED
  5
13B
  9
$SURFTAB1
 70
         6
  9
$SURFTAB2
 70
         6
  9
$SURFTYPE
 70
         6
  9
$SURFU
 70
         6
  9
$SURFV
 70
         6
  9
$UCSNAME
  2

  9
$UCSORG
 10
0.0
 20
0.0
 30
0.0
  9
$UCSXDIR
 10
1.0
 20
0.0
 30
0.0
  9
$UCSYDIR
 10
0.0
 20
1.0
 30
0.0
  9
$PUCSNAME
  2

  9
$PUCSORG
 10
0.0
 20
0.0
 30
0.0
  9
$PUCSXDIR
 10
1.0
 20
0.0
 30
0.0
  9
$PUCSYDIR
 10
0.0
 20
1.0
 30
0.0
  9
$USERI1
 70
         0
  9
$USERI2
 70
         0
  9
$USERI3
 70
         0
  9
$USERI4
 70
         0
  9
$USERI5
 70
         0
  9
$USERR1
 40
0.0
  9
$USERR2
 40
0.0
  9
$USERR3
 40
0.0
  9
$USERR4
 40
0.0
  9
$USERR5
 40
0.0
  9
$WORLDVIEW
 70
         1
  9
$SHADEDGE
 70
         3
  9
$SHADEDIF
 70
        70
  9
$TILEMODE
 70
         1
  9
$MAXACTVP
 70
        16
  9
$PINSBASE
 10
0.0
 20
0.0
 30
0.0
  9
$PLIMCHECK
 70
         0
  9
$PEXTMIN
 10
1.0000000000E+20
 20
1.0000000000E+20
 30
1.0000000000E+20
  9
$PEXTMAX
 10
-1.0000000000E+20
 20
-1.0000000000E+20
 30
-1.0000000000E+20
  9
$PLIMMIN
 10
0.0
 20
0.0
  9
$PLIMMAX
 10
12.0
 20
9.0
  9
$UNITMODE
 70
         0
  9
$VISRETAIN
 70
         0
  9
$PLINEGEN
 70
         1
  9
$PSLTSCALE
 70
         0
  9
$TREEDEPTH
 70
      3020
  9
$PICKSTYLE
 70
         1
  9
$CMLSTYLE
  2
STANDARD
  9
$CMLJUST
 70
         0
  9
$CMLSCALE
 40
1.0
  9
$PROXYGRAPHICS
 70
         0
  9
$MEASUREMENT
 70
         0
  0
ENDSEC
  0
SECTION
  2
CLASSES
  0
CLASS
  1
LWPOLYLINE
  2
AcDbPolyline
  3
"AutoCAD"
 90
        0
280
         0
281
         1
  0
CLASS
  1
IMAGE
  2
AcDbRasterImage
  3
ISM
 90
      127
280
         0
281
         1
  0
CLASS
  1
OLE2FRAME
  2
AcDbOle2Frame
  3
""
 90
        0
280
         0
281
         1
  0
CLASS
  1
HATCH
  2
AcDbHatch
  3
"ACAD_SEDONA"
 90
        0
280
         0
281
         1
  0
CLASS
  1
DICTIONARYVAR
  2
AcDbDictionaryVar
  3
"AutoCAD"
 90
        0
280
         0
281
         0
  0
CLASS
  1
RASTERVARIABLES
  2
AcDbRasterVariables
  3
ISM
 90
        0
280
         0
281
         0
  0
CLASS
  1
IMAGEDEF
  2
AcDbRasterImageDef
  3
ISM
 90
        0
280
         0
281
         0
  0
CLASS
  1
IMAGEDEF_REACTOR
  2
AcDbRasterImageDefReactor
  3
ISM
 90
        1
280
         0
281
         0
  0
CLASS
  1
IDBUFFER
  2
AcDbIdBuffer
  3
"Acad"
 90
        0
280
         0
281
         0
  0
CLASS
  1
SPATIAL_FILTER
  2
AcDbSpatialFilter
  3
"Acad"
 90
        0
280
         0
281
         0
  0
CLASS
  1
XRECORD
  2
AcDbXrecord
  3
"<Built In>"
 90
        0
280
         0
281
         0
  0
CLASS
  1
SORTENTSTABLE
  2
AcDbSortentsTable
  3
"AutoCAD"
 90
        0
280
         0
281
         0
  0
CLASS
  1
LAYER_INDEX
  2
AcDbLayerIndex
  3
"Acad"
 90
        0
280
         0
281
         0
  0
CLASS
  1
SPATIAL_INDEX
  2
AcDbSpatialIndex
  3
"Acad"
 90
        0
280
         0
281
         0
  0
CLASS
  1
OBJECT_PTR
  2
CAseDLPNTableRecord
  3
"ASE-LPNTableRecord"
 90
        1
280
         0
281
         0
  0
CLASS
  1
LAYOUT
  2
AcDbLayout
  3
"AutoCAD 2000"
 90
        1
280
         0
281
         0
  0
CLASS
  1
PLOTSETTINGS
  2
AcDbPlotSettings
  3
"AutoCAD 2000"
 90
        1
280
         0
281
         0
  0
CLASS
  1
ACDBDICTIONARYWDFLT
  2
AcDbDictionaryWithDefault
  3
"AutoCAD 2000"
 90
        1
280
         0
281
         0
  0
CLASS
  1
ACDBPLACEHOLDER
  2
AcDbPlaceHolder
  3
"AutoCAD 2000"
 90
        1
280
         0
281
         0
  0
CLASS
  1
VBA_PROJECT
  2
AcDbVbaProject
  3
"acadvba"
 90
        1
280
         0
281
         0
  0
CLASS
  1
WIPEOUT
  2
AcDbWipeout
  3
WipeOut|AutoCAD Express Tool|expresstools@autodesk.com
 90
      127
280
         0
281
         1
  0
CLASS
  1
WIPEOUTVARIABLES
  2
AcDbWipeoutVariables
  3
WipeOut|AutoCAD Express Tool|expresstools@autodesk.com
 90
        0
280
         0
281
         0
  0
CLASS
  1
RTEXT
  2
RText
  3
RText|AutoCAD Express Tool|expresstools@autodesk.com
 90
        0
280
         0
281
         1
  0
CLASS
  1
ARCALIGNEDTEXT
  2
AcDbArcAlignedText
  3
ATEXT|AutoCAD Express Tool|expresstools@autodesk.com
 90
        0
280
         0
281
         1
  0
ENDSEC
  0
SECTION
  2
TABLES
  0
TABLE
  2
VPORT
  5
7
100
AcDbSymbolTable
 70
         1
  0
VPORT
  5
15
100
AcDbSymbolTableRecord
100
AcDbViewportTableRecord
  2
*ACTIVE
 70
         0
 10
0.0
 20
0.0
 11
1.0
 21
1.0
 12
71.1305395784
 22
-4.1609665792
 13
0.0
 23
0.0
 14
1.0
 24
1.0
 15
0.0
 25
0.0
 16
0.0
 26
0.0
 36
1.0
 17
0.0
 27
0.0
 37
0.0
 40
17.9790788258
 41
1.4136321195
 42
50.0
 43
0.0
 44
0.0
 50
0.0
 51
0.0
 71
         0
 72
       100
 73
         1
 74
         1
 75
         0
 76
         0
 77
         0
 78
         0
  0
ENDTAB
  0
TABLE
  2
LTYPE
  5
4
100
AcDbSymbolTable
 70
         6
  0
LTYPE
  5
11
100
AcDbSymbolTableRecord
100
AcDbLinetypeTableRecord
  2
BYBLOCK
 70
        64
  3

 72
        65
 73
         0
 40
0.0
  0
LTYPE
  5
12
100
AcDbSymbolTableRecord
100
AcDbLinetypeTableRecord
  2
BYLAYER
 70
        64
  3

 72
        65
 73
         0
 40
0.0
  0
LTYPE
  5
13
100
AcDbSymbolTableRecord
100
AcDbLinetypeTableRecord
  2
CONTINUOUS
 70
        64
  3
Solid line
 72
        65
 73
         0
 40
0.0
  0
LTYPE
  5
1D
100
AcDbSymbolTableRecord
100
AcDbLinetypeTableRecord
  2
DASHED
 70
        64
  3
_ _ _ _ _ _ _ _ _ _ _ _ _ _ _ _
 72
        65
 73
         2
 40
0.2
 49
0.1
 74
         0
 49
-0.1
 74
         0
  0
LTYPE
  5
1E
100
AcDbSymbolTableRecord
100
AcDbLinetypeTableRecord
  2
CENTER
 70
        64
  3
___ _ ___ _ ___ _ ___ _ ___ _ ___ _ ___ _ ___ _
 72
        65
 73
         4
 40
0.95
 49
0.625
 74
         0
 49
-0.125
 74
         0
 49
0.075
 74
         0
 49
-0.125
 74
         0
  0
LTYPE
  5
1F
100
AcDbSymbolTableRecord
100
AcDbLinetypeTableRecord
  2
PHANTOM
 70
        64
  3
______  __  __  ______  __  __  ______  __  __  
 72
        65
 73
         6
 40
1.025
 49
0.625
 74
         0
 49
-0.125
 74
         0
 49
0.075
 74
         0
 49
-0.125
 74
         0
 49
0.075
 74
         0
 49
-0.125
 74
         0
  0
ENDTAB
  0
TABLE
  2
LAYER
  5
2
100
AcDbSymbolTable
 70
         8
  0
LAYER
  5
14
100
AcDbSymbolTableRecord
100
AcDbLayerTableRecord
  2
0
 70
         0
 62
         7
  6
CONTINUOUS
  0
LAYER
  5
21
100
AcDbSymbolTableRecord
100
AcDbLayerTableRecord
  2
CK_LEVEL_1
 70
         0
 62
         7
  6
CONTINUOUS
  0
LAYER
  5
22
100
AcDbSymbolTableRecord
100
AcDbLayerTableRecord
  2
CK_LEVEL_2
 70
         0
 62
         7
  6
CONTINUOUS
  0
LAYER
  5
23
100
AcDbSymbolTableRecord
100
AcDbLayerTableRecord
  2
CK_LEVEL_5
 70
         0
 62
         7
  6
CONTINUOUS
  0
LAYER
  5
24
100
AcDbSymbolTableRecord
100
AcDbLayerTableRecord
  2
CK_LEVEL_10
 70
         0
 62
         7
  6
CONTINUOUS
  0
LAYER
  5
25
100
AcDbSymbolTableRecord
100
AcDbLayerTableRecord
  2
CK_LEVEL_250
 70
         0
 62
         7
  6
CONTINUOUS
  0
LAYER
  5
26
100
AcDbSymbolTableRecord
100
AcDbLayerTableRecord
  2
CK_LEVEL_251
 70
         0
 62
         7
  6
CONTINUOUS
  0
LAYER
  5
2C
100
AcDbSymbolTableRecord
100
AcDbLayerTableRecord
  2
DEFPOINTS
 70
         0
 62
        -7
  6
CONTINUOUS
  0
ENDTAB
  0
TABLE
  2
STYLE
  5
3
100
AcDbSymbolTable
 70
         1
  0
STYLE
  5
17
100
AcDbSymbolTableRecord
100
AcDbTextStyleTableRecord
  2
STANDARD
 70
         0
 40
0.0
 41
1.0
 50
0.0
 71
         0
 42
0.0
  3
txt
  4

  0
ENDTAB
  0
TABLE
  2
VIEW
  5
5
100
AcDbSymbolTable
 70
         0
  0
ENDTAB
  0
TABLE
  2
UCS
  5
6
100
AcDbSymbolTable
 70
         1
  0
UCS
  5
20
100
AcDbSymbolTableRecord
100
AcDbUCSTableRecord
  2
CK_VIEW_1
 70
         0
 10
0.0
 20
0.0
 30
1.0
 11
1.0
 21
0.0
 31
0.0
 12
0.0
 22
1.0
 32
0.0
  0
ENDTAB
  0
TABLE
  2
APPID
  5
8
100
AcDbSymbolTable
 70
         1
  0
APPID
  5
16
100
AcDbSymbolTableRecord
100
AcDbRegAppTableRecord
  2
ACAD
 70
         0
  0
ENDTAB
  0
TABLE
  2
DIMSTYLE
  5
9
100
AcDbSymbolTable
 70
         2
  0
DIMSTYLE
105
18
100
AcDbSymbolTableRecord
100
AcDbDimStyleTableRecord
  2
STANDARD
 70
         0
  3

  4

  5

  6

  7

 40
1.0
 41
0.18
 42
0.0625
 43
0.38
 44
0.18
 45
0.0
 46
0.0
 47
0.0
 48
0.0
 71
         0
 72
         0
 73
         1
 74
         1
 75
         0
 76
         0
 77
         0
 78
         0
140
0.18
141
0.09
142
0.0
143
25.4
144
1.0
145
0.0
146
1.0
147
0.09
170
         0
171
         2
172
         0
173
         0
174
         0
175
         0
176
         0
177
         0
178
         0
270
         2
271
         4
272
         4
273
         2
274
         2
275
         0
280
         0
281
         0
282
         0
283
         1
284
         0
285
         0
286
         0
287
         0
288
         0
340
17
  0
DIMSTYLE
105
28
100
AcDbSymbolTableRecord
100
AcDbDimStyleTableRecord
  2
DIMSTYLE1
 70
         0
  3

  4

  5

  6

  7

 40
1.0
 41
0.125
 42
0.0625
 43
0.38
 44
0.125
 45
0.0
 46
0.0
 47
0.0
 48
0.0
 71
         0
 72
         0
 73
         1
 74
         1
 75
         0
 76
         0
 77
         0
 78
         0
140
0.125
141
0.09
142
0.0
143
25.4
144
1.0
145
0.0
146
1.0
147
0.09
170
         0
171
         2
172
         0
173
         0
174
         0
175
         0
176
         0
177
         0
178
         0
270
         2
271
         4
272
         4
273
         2
274
         2
275
         0
280
         0
281
         0
282
         0
283
         1
284
         0
285
         0
286
         0
287
         0
288
         0
340
17
  0
ENDTAB
  0
TABLE
  2
BLOCK_RECORD
  5
1
100
AcDbSymbolTable
 70
         8
  0
BLOCK_RECORD
  5
A
100
AcDbSymbolTableRecord
100
AcDbBlockTableRecord
  2
*MODEL_SPACE
  0
BLOCK_RECORD
  5
B
100
AcDbSymbolTableRecord
100
AcDbBlockTableRecord
  2
*PAPER_SPACE
  0
BLOCK_RECORD
  5
29
100
AcDbSymbolTableRecord
100
AcDbBlockTableRecord
  2
*D0
  0
BLOCK_RECORD
  5
3F
100
AcDbSymbolTableRecord
100
AcDbBlockTableRecord
  2
GENDIML3
  0
BLOCK_RECORD
  5
4C
100
AcDbSymbolTableRecord
100
AcDbBlockTableRecord
  2
GENDIML4
  0
BLOCK_RECORD
  5
59
100
AcDbSymbolTableRecord
100
AcDbBlockTableRecord
  2
*D3
  0
BLOCK_RECORD
  5
B4
100
AcDbSymbolTableRecord
100
AcDbBlockTableRecord
  2
*D4
  0
BLOCK_RECORD
  5
C3
100
AcDbSymbolTableRecord
100
AcDbBlockTableRecord
  2
*D5
  0
BLOCK_RECORD
  5
D2
100
AcDbSymbolTableRecord
100
AcDbBlockTableRecord
  2
*D6
  0
BLOCK_RECORD
  5
E1
100
AcDbSymbolTableRecord
100
AcDbBlockTableRecord
  2
*D7
  0
ENDTAB
  0
ENDSEC
  0
SECTION
  2
BLOCKS
  0
BLOCK
  5
D
100
AcDbEntity
  8
0
100
AcDbBlockBegin
  2
*MODEL_SPACE
 70
         0
 10
0.0
 20
0.0
 30
0.0
  3
*MODEL_SPACE
  1

  0
ENDBLK
  5
E
100
AcDbEntity
  8
0
100
AcDbBlockEnd
  0
BLOCK
  5
F
100
AcDbEntity
 67
         1
  8
0
100
AcDbBlockBegin
  2
*PAPER_SPACE
 70
         0
 10
0.0
 20
0.0
 30
0.0
  3
*PAPER_SPACE
  1

  0
ENDBLK
  5
10
100
AcDbEntity
 67
         1
  8
0
100
AcDbBlockEnd
  0
BLOCK
  5
2A
100
AcDbEntity
  8
0
100
AcDbBlockBegin
  2
*D0
 70
        65
 10
0.0
 20
0.0
 30
0.0
  3
*D0
  1

  0
POINT
  5
2D
100
AcDbEntity
  8
DEFPOINTS
  6
CONTINUOUS
 62
         0
100
AcDbPoint
 10
66.3615005779
 20
2.7895901933
 30
0.0
  0
POINT
  5
2E
100
AcDbEntity
  8
DEFPOINTS
  6
CONTINUOUS
 62
         0
100
AcDbPoint
 10
66.3615005779
 20
1.8823569987
 30
0.0
  0
POINT
  5
2F
100
AcDbEntity
  8
DEFPOINTS
  6
CONTINUOUS
 62
         0
100
AcDbPoint
 10
68.3085005779
 20
1.8638535766
 30
0.0
  0
LINE
  5
30
100
AcDbEntity
  8
CK_LEVEL_1
  6
CONTINUOUS
 62
         2
100
AcDbLine
 10
66.3615005779
 20
1.9448569987
 30
0.0
 11
66.3615005779
 21
2.8208401933
 31
0.0
  0
LINE
  5
31
100
AcDbEntity
  8
CK_LEVEL_1
  6
CONTINUOUS
 62
         2
100
AcDbLine
 10
68.3085005779
 20
1.9263535766
 30
0.0
 11
68.3085005779
 21
2.8208401933
 31
0.0
  0
LINE
  5
32
100
AcDbEntity
  8
CK_LEVEL_1
  6
CONTINUOUS
 62
         2
100
AcDbLine
 10
66.3615005779
 20
2.7895901933
 30
0.0
 11
66.7181504261
 21
2.7895901933
 31
0.0
  0
3DFACE
  5
33
100
AcDbEntity
  8
CK_LEVEL_1
  6
CONTINUOUS
 62
         2
100
AcDbFace
 10
66.3615005779
 20
2.7895901933
 30
0.0
 11
66.4865005779
 21
2.8083401933
 31
0.0
 12
66.4865005779
 22
2.7708401933
 32
0.0
 13
66.4865005779
 23
2.7708401933
 33
0.0
 70
         4
  0
LINE
  5
34
100
AcDbEntity
  8
CK_LEVEL_1
  6
CONTINUOUS
 62
         2
100
AcDbLine
 10
68.3085005779
 20
2.7895901933
 30
0.0
 11
67.8431504261
 21
2.7895901933
 31
0.0
  0
3DFACE
  5
35
100
AcDbEntity
  8
CK_LEVEL_1
  6
CONTINUOUS
 62
         2
100
AcDbFace
 10
68.3085005779
 20
2.7895901933
 30
0.0
 11
68.1835005779
 21
2.7708401933
 31
0.0
 12
68.1835005779
 22
2.8083401933
 32
0.0
 13
68.1835005779
 23
2.8083401933
 33
0.0
 70
         4
  0
TEXT
  5
36
100
AcDbEntity
  8
CK_LEVEL_1
  6
CONTINUOUS
 62
         2
100
AcDbText
 10
66.7806504261
 20
2.8270901933
 30
0.0
 40
0.125
  1
  1.95
100
AcDbText
  0
TEXT
  5
37
100
AcDbEntity
  8
CK_LEVEL_1
  6
CONTINUOUS
 62
         2
100
AcDbText
 10
66.7806504261
 20
2.6270901933
 30
0.0
 40
0.125
  1
[49.5mm]
100
AcDbText
  0
ENDBLK
  5
38
100
AcDbEntity
  8
0
  6
CONTINUOUS
100
AcDbBlockEnd
  0
BLOCK
  5
40
100
AcDbEntity
  8
0
100
AcDbBlockBegin
  2
GENDIML3
 70
        64
 10
0.0
 20
0.0
 30
0.0
  3
GENDIML3
  1

  0
LINE
  5
41
100
AcDbEntity
  8
CK_LEVEL_1
  6
CONTINUOUS
 62
         2
100
AcDbLine
 10
78.9335005779
 20
1.8941968655
 30
0.0
 11
79.3747531948
 21
1.8941968655
 31
0.0
  0
LINE
  5
42
100
AcDbEntity
  8
CK_LEVEL_1
  6
CONTINUOUS
 62
         2
100
AcDbLine
 10
78.9335005779
 20
1.5701968655
 30
0.0
 11
79.3747531948
 21
1.5701968655
 31
0.0
  0
LINE
  5
43
100
AcDbEntity
  8
CK_LEVEL_1
  6
CONTINUOUS
 62
         2
100
AcDbLine
 10
79.3435031948
 20
1.8941968655
 30
0.0
 11
79.3435031948
 21
2.1441968655
 31
0.0
  0
3DFACE
  5
44
100
AcDbEntity
  8
CK_LEVEL_1
  6
CONTINUOUS
 62
         2
100
AcDbFace
 10
79.3435031948
 20
1.8941968655
 30
0.0
 11
79.3247531948
 21
2.0191968655
 31
0.0
 12
79.3622531948
 22
2.0191968655
 32
0.0
 13
79.3622531948
 23
2.0191968655
 33
0.0
 70
         4
  0
LINE
  5
45
100
AcDbEntity
  8
CK_LEVEL_1
  6
CONTINUOUS
 62
         2
100
AcDbLine
 10
79.3435031948
 20
1.5701968655
 30
0.0
 11
79.3435031948
 21
1.2416964204
 31
0.0
  0
3DFACE
  5
46
100
AcDbEntity
  8
CK_LEVEL_1
  6
CONTINUOUS
 62
         2
100
AcDbFace
 10
79.3435031948
 20
1.5701968655
 30
0.0
 11
79.3622531948
 21
1.4451968655
 31
0.0
 12
79.3247531948
 22
1.4451968655
 32
0.0
 13
79.3247531948
 23
1.4451968655
 33
0.0
 70
         4
  0
TEXT
  5
47
100
AcDbEntity
  8
CK_LEVEL_1
  6
CONTINUOUS
 62
         2
100
AcDbText
 10
78.9060031948
 20
1.0541964204
 30
0.0
 40
0.125
  1
 %%c.32
100
AcDbText
  0
TEXT
  5
48
100
AcDbEntity
  8
CK_LEVEL_1
  6
CONTINUOUS
 62
         2
100
AcDbText
 10
78.9060031948
 20
0.8541964204
 30
0.0
 40
0.125
  1
[8.1mm]
100
AcDbText
  0
ENDBLK
  5
49
100
AcDbEntity
  8
0
  6
CONTINUOUS
100
AcDbBlockEnd
  0
BLOCK
  5
4D
100
AcDbEntity
  8
0
100
AcDbBlockBegin
  2
GENDIML4
 70
        64
 10
0.0
 20
0.0
 30
0.0
  3
GENDIML4
  1

  0
LINE
  5
4E
100
AcDbEntity
  8
CK_LEVEL_1
  6
CONTINUOUS
 62
         2
100
AcDbLine
 10
63.3370005779
 20
2.1021968655
 30
0.0
 11
62.5446740301
 21
2.1021968655
 31
0.0
  0
LINE
  5
4F
100
AcDbEntity
  8
CK_LEVEL_1
  6
CONTINUOUS
 62
         2
100
AcDbLine
 10
63.3370005779
 20
1.3621968655
 30
0.0
 11
62.5446740301
 21
1.3621968655
 31
0.0
  0
LINE
  5
50
100
AcDbEntity
  8
CK_LEVEL_1
  6
CONTINUOUS
 62
         2
100
AcDbLine
 10
62.5759240301
 20
2.1021968655
 30
0.0
 11
62.5759240301
 21
2.3521968655
 31
0.0
  0
3DFACE
  5
51
100
AcDbEntity
  8
CK_LEVEL_1
  6
CONTINUOUS
 62
         2
100
AcDbFace
 10
62.5759240301
 20
2.1021968655
 30
0.0
 11
62.5571740301
 21
2.2271968655
 31
0.0
 12
62.5946740301
 22
2.2271968655
 32
0.0
 13
62.5946740301
 23
2.2271968655
 33
0.0
 70
         4
  0
LINE
  5
52
100
AcDbEntity
  8
CK_LEVEL_1
  6
CONTINUOUS
 62
         2
100
AcDbLine
 10
62.5759240301
 20
1.3621968655
 30
0.0
 11
62.5759240301
 21
1.1121968655
 31
0.0
  0
3DFACE
  5
53
100
AcDbEntity
  8
CK_LEVEL_1
  6
CONTINUOUS
 62
         2
100
AcDbFace
 10
62.5759240301
 20
1.3621968655
 30
0.0
 11
62.5946740301
 21
1.2371968655
 31
0.0
 12
62.5571740301
 22
1.2371968655
 32
0.0
 13
62.5571740301
 23
1.2371968655
 33
0.0
 70
         4
  0
TEXT
  5
54
100
AcDbEntity
  8
CK_LEVEL_1
  6
CONTINUOUS
 62
         2
100
AcDbText
 10
62.0759240301
 20
1.7855151017
 30
0.0
 40
0.125
  1
 %%c.74
100
AcDbText
  0
TEXT
  5
55
100
AcDbEntity
  8
CK_LEVEL_1
  6
CONTINUOUS
 62
         2
100
AcDbText
 10
62.0759240301
 20
1.5855151017
 30
0.0
 40
0.125
  1
[18.8mm]
100
AcDbText
  0
ENDBLK
  5
56
100
AcDbEntity
  8
0
  6
CONTINUOUS
100
AcDbBlockEnd
  0
BLOCK
  5
5A
100
AcDbEntity
  8
0
100
AcDbBlockBegin
  2
*D3
 70
        65
 10
0.0
 20
0.0
 30
0.0
  3
*D3
  1

  0
POINT
  5
5C
100
AcDbEntity
  8
DEFPOINTS
  6
CONTINUOUS
 62
         0
100
AcDbPoint
 10
63.3995005779
 20
2.7895901933
 30
0.0
  0
POINT
  5
5D
100
AcDbEntity
  8
DEFPOINTS
  6
CONTINUOUS
 62
         0
100
AcDbPoint
 10
63.3995005779
 20
2.1021968655
 30
0.0
  0
POINT
  5
5E
100
AcDbEntity
  8
DEFPOINTS
  6
CONTINUOUS
 62
         0
100
AcDbPoint
 10
66.3615005779
 20
1.8823569987
 30
0.0
  0
LINE
  5
5F
100
AcDbEntity
  8
CK_LEVEL_1
  6
CONTINUOUS
 62
         2
100
AcDbLine
 10
63.3995005779
 20
2.1646968655
 30
0.0
 11
63.3995005779
 21
2.8208401933
 31
0.0
  0
LINE
  5
60
100
AcDbEntity
  8
CK_LEVEL_1
  6
CONTINUOUS
 62
         2
100
AcDbLine
 10
66.3615005779
 20
1.9448569987
 30
0.0
 11
66.3615005779
 21
2.8208401933
 31
0.0
  0
LINE
  5
61
100
AcDbEntity
  8
CK_LEVEL_1
  6
CONTINUOUS
 62
         2
100
AcDbLine
 10
63.3995005779
 20
2.7895901933
 30
0.0
 11
64.3464527361
 21
2.7895901933
 31
0.0
  0
3DFACE
  5
62
100
AcDbEntity
  8
CK_LEVEL_1
  6
CONTINUOUS
 62
         2
100
AcDbFace
 10
63.3995005779
 20
2.7895901933
 30
0.0
 11
63.5245005779
 21
2.8083401933
 31
0.0
 12
63.5245005779
 22
2.7708401933
 32
0.0
 13
63.5245005779
 23
2.7708401933
 33
0.0
 70
         4
  0
LINE
  5
63
100
AcDbEntity
  8
CK_LEVEL_1
  6
CONTINUOUS
 62
         2
100
AcDbLine
 10
66.3615005779
 20
2.7895901933
 30
0.0
 11
65.4714527361
 21
2.7895901933
 31
0.0
  0
3DFACE
  5
64
100
AcDbEntity
  8
CK_LEVEL_1
  6
CONTINUOUS
 62
         2
100
AcDbFace
 10
66.3615005779
 20
2.7895901933
 30
0.0
 11
66.2365005779
 21
2.7708401933
 31
0.0
 12
66.2365005779
 22
2.8083401933
 32
0.0
 13
66.2365005779
 23
2.8083401933
 33
0.0
 70
         4
  0
TEXT
  5
65
100
AcDbEntity
  8
CK_LEVEL_1
  6
CONTINUOUS
 62
         2
100
AcDbText
 10
64.4089527361
 20
2.8270901933
 30
0.0
 40
0.125
  1
  2.96
100
AcDbText
  0
TEXT
  5
66
100
AcDbEntity
  8
CK_LEVEL_1
  6
CONTINUOUS
 62
         2
100
AcDbText
 10
64.4089527361
 20
2.6270901933
 30
0.0
 40
0.125
  1
[75.2mm]
100
AcDbText
  0
ENDBLK
  5
67
100
AcDbEntity
  8
0
  6
CONTINUOUS
100
AcDbBlockEnd
  0
BLOCK
  5
B5
100
AcDbEntity
  8
0
100
AcDbBlockBegin
  2
*D4
 70
        65
 10
0.0
 20
0.0
 30
0.0
  3
*D4
  1

  0
POINT
  5
B7
100
AcDbEntity
  8
DEFPOINTS
  6
CONTINUOUS
 62
         0
100
AcDbPoint
 10
63.3995005779
 20
3.3808859139
 30
0.0
  0
POINT
  5
B8
100
AcDbEntity
  8
DEFPOINTS
  6
CONTINUOUS
 62
         0
100
AcDbPoint
 10
63.3995005779
 20
2.1021968655
 30
0.0
  0
POINT
  5
B9
100
AcDbEntity
  8
DEFPOINTS
  6
CONTINUOUS
 62
         0
100
AcDbPoint
 10
78.8710005779
 20
1.8941968655
 30
0.0
  0
LINE
  5
BA
100
AcDbEntity
  8
CK_LEVEL_1
  6
CONTINUOUS
 62
         2
100
AcDbLine
 10
63.3995005779
 20
2.1646968655
 30
0.0
 11
63.3995005779
 21
3.4121359139
 31
0.0
  0
LINE
  5
BB
100
AcDbEntity
  8
CK_LEVEL_1
  6
CONTINUOUS
 62
         2
100
AcDbLine
 10
78.8710005779
 20
1.9566968655
 30
0.0
 11
78.8710005779
 21
3.4121359139
 31
0.0
  0
LINE
  5
BC
100
AcDbEntity
  8
CK_LEVEL_1
  6
CONTINUOUS
 62
         2
100
AcDbLine
 10
63.3995005779
 20
3.3808859139
 30
0.0
 11
70.4369268403
 21
3.3808859139
 31
0.0
  0
3DFACE
  5
BD
100
AcDbEntity
  8
CK_LEVEL_1
  6
CONTINUOUS
 62
         2
100
AcDbFace
 10
63.3995005779
 20
3.3808859139
 30
0.0
 11
63.5245005779
 21
3.3996359139
 31
0.0
 12
63.5245005779
 22
3.3621359139
 32
0.0
 13
63.5245005779
 23
3.3621359139
 33
0.0
 70
         4
  0
LINE
  5
BE
100
AcDbEntity
  8
CK_LEVEL_1
  6
CONTINUOUS
 62
         2
100
AcDbLine
 10
78.8710005779
 20
3.3808859139
 30
0.0
 11
71.6869268403
 21
3.3808859139
 31
0.0
  0
3DFACE
  5
BF
100
AcDbEntity
  8
CK_LEVEL_1
  6
CONTINUOUS
 62
         2
100
AcDbFace
 10
78.8710005779
 20
3.3808859139
 30
0.0
 11
78.7460005779
 21
3.3621359139
 31
0.0
 12
78.7460005779
 22
3.3996359139
 32
0.0
 13
78.7460005779
 23
3.3996359139
 33
0.0
 70
         4
  0
TEXT
  5
C0
100
AcDbEntity
  8
CK_LEVEL_1
  6
CONTINUOUS
 62
         2
100
AcDbText
 10
70.4994268403
 20
3.4183859139
 30
0.0
 40
0.125
  1
  15.47
100
AcDbText
  0
TEXT
  5
C1
100
AcDbEntity
  8
CK_LEVEL_1
  6
CONTINUOUS
 62
         2
100
AcDbText
 10
70.4994268403
 20
3.2183859139
 30
0.0
 40
0.125
  1
[392.9mm]
100
AcDbText
  0
ENDBLK
  5
C2
100
AcDbEntity
  8
0
  6
CONTINUOUS
100
AcDbBlockEnd
  0
BLOCK
  5
C4
100
AcDbEntity
  8
0
100
AcDbBlockBegin
  2
*D5
 70
        65
 10
0.0
 20
0.0
 30
0.0
  3
*D5
  1

  0
POINT
  5
C6
100
AcDbEntity
  8
DEFPOINTS
  6
CONTINUOUS
 62
         0
100
AcDbPoint
 10
76.2460005769
 20
2.6274060605
 30
0.0
  0
POINT
  5
C7
100
AcDbEntity
  8
DEFPOINTS
  6
CONTINUOUS
 62
         0
100
AcDbPoint
 10
76.2460005769
 20
1.8621968655
 30
0.0
  0
POINT
  5
C8
100
AcDbEntity
  8
DEFPOINTS
  6
CONTINUOUS
 62
         0
100
AcDbPoint
 10
68.3085005779
 20
1.8621968655
 30
0.0
  0
LINE
  5
C9
100
AcDbEntity
  8
CK_LEVEL_1
  6
CONTINUOUS
 62
         2
100
AcDbLine
 10
76.2460005769
 20
1.9246968655
 30
0.0
 11
76.2460005769
 21
2.6586560605
 31
0.0
  0
LINE
  5
CA
100
AcDbEntity
  8
CK_LEVEL_1
  6
CONTINUOUS
 62
         2
100
AcDbLine
 10
68.3085005779
 20
1.9246968655
 30
0.0
 11
68.3085005779
 21
2.6586560605
 31
0.0
  0
LINE
  5
CB
100
AcDbEntity
  8
CK_LEVEL_1
  6
CONTINUOUS
 62
         2
100
AcDbLine
 10
76.2460005769
 20
2.6274060605
 30
0.0
 11
72.7227868986
 21
2.6274060605
 31
0.0
  0
3DFACE
  5
CC
100
AcDbEntity
  8
CK_LEVEL_1
  6
CONTINUOUS
 62
         2
100
AcDbFace
 10
76.2460005769
 20
2.6274060605
 30
0.0
 11
76.1210005769
 21
2.6086560605
 31
0.0
 12
76.1210005769
 22
2.6461560605
 32
0.0
 13
76.1210005769
 23
2.6461560605
 33
0.0
 70
         4
  0
LINE
  5
CD
100
AcDbEntity
  8
CK_LEVEL_1
  6
CONTINUOUS
 62
         2
100
AcDbLine
 10
68.3085005779
 20
2.6274060605
 30
0.0
 11
71.4727868986
 21
2.6274060605
 31
0.0
  0
3DFACE
  5
CE
100
AcDbEntity
  8
CK_LEVEL_1
  6
CONTINUOUS
 62
         2
100
AcDbFace
 10
68.3085005779
 20
2.6274060605
 30
0.0
 11
68.4335005779
 21
2.6461560605
 31
0.0
 12
68.4335005779
 22
2.6086560605
 32
0.0
 13
68.4335005779
 23
2.6086560605
 33
0.0
 70
         4
  0
TEXT
  5
CF
100
AcDbEntity
  8
CK_LEVEL_1
  6
CONTINUOUS
 62
         2
100
AcDbText
 10
71.5352868986
 20
2.6649060605
 30
0.0
 40
0.125
  1
   7.94
100
AcDbText
  0
TEXT
  5
D0
100
AcDbEntity
  8
CK_LEVEL_1
  6
CONTINUOUS
 62
         2
100
AcDbText
 10
71.5352868986
 20
2.4649060605
 30
0.0
 40
0.125
  1
[201.7mm]
100
AcDbText
  0
ENDBLK
  5
D1
100
AcDbEntity
  8
0
  6
CONTINUOUS
100
AcDbBlockEnd
  0
BLOCK
  5
D3
100
AcDbEntity
  8
0
100
AcDbBlockBegin
  2
*D6
 70
        65
 10
0.0
 20
0.0
 30
0.0
  3
*D6
  1

  0
POINT
  5
D5
100
AcDbEntity
  8
DEFPOINTS
  6
CONTINUOUS
 62
         0
100
AcDbPoint
 10
76.2460005769
 20
2.6354579975
 30
0.0
  0
POINT
  5
D6
100
AcDbEntity
  8
DEFPOINTS
  6
CONTINUOUS
 62
         0
100
AcDbPoint
 10
76.2460005769
 20
1.8621968655
 30
0.0
  0
POINT
  5
D7
100
AcDbEntity
  8
DEFPOINTS
  6
CONTINUOUS
 62
         0
100
AcDbPoint
 10
78.1930005769
 20
1.8638535766
 30
0.0
  0
LINE
  5
D8
100
AcDbEntity
  8
CK_LEVEL_1
  6
CONTINUOUS
 62
         2
100
AcDbLine
 10
76.2460005769
 20
1.9246968655
 30
0.0
 11
76.2460005769
 21
2.6667079975
 31
0.0
  0
LINE
  5
D9
100
AcDbEntity
  8
CK_LEVEL_1
  6
CONTINUOUS
 62
         2
100
AcDbLine
 10
78.1930005769
 20
1.9263535766
 30
0.0
 11
78.1930005769
 21
2.6667079975
 31
0.0
  0
LINE
  5
DA
100
AcDbEntity
  8
CK_LEVEL_1
  6
CONTINUOUS
 62
         2
100
AcDbLine
 10
76.2460005769
 20
2.6354579975
 30
0.0
 11
76.6645619566
 21
2.6354579975
 31
0.0
  0
3DFACE
  5
DB
100
AcDbEntity
  8
CK_LEVEL_1
  6
CONTINUOUS
 62
         2
100
AcDbFace
 10
76.2460005769
 20
2.6354579975
 30
0.0
 11
76.3710005769
 21
2.6542079975
 31
0.0
 12
76.3710005769
 22
2.6167079975
 32
0.0
 13
76.3710005769
 23
2.6167079975
 33
0.0
 70
         4
  0
LINE
  5
DC
100
AcDbEntity
  8
CK_LEVEL_1
  6
CONTINUOUS
 62
         2
100
AcDbLine
 10
78.1930005769
 20
2.6354579975
 30
0.0
 11
77.7895619566
 21
2.6354579975
 31
0.0
  0
3DFACE
  5
DD
100
AcDbEntity
  8
CK_LEVEL_1
  6
CONTINUOUS
 62
         2
100
AcDbFace
 10
78.1930005769
 20
2.6354579975
 30
0.0
 11
78.0680005769
 21
2.6167079975
 31
0.0
 12
78.0680005769
 22
2.6542079975
 32
0.0
 13
78.0680005769
 23
2.6542079975
 33
0.0
 70
         4
  0
TEXT
  5
DE
100
AcDbEntity
  8
CK_LEVEL_1
  6
CONTINUOUS
 62
         2
100
AcDbText
 10
76.7270619566
 20
2.6729579975
 30
0.0
 40
0.125
  1
  1.95
100
AcDbText
  0
TEXT
  5
DF
100
AcDbEntity
  8
CK_LEVEL_1
  6
CONTINUOUS
 62
         2
100
AcDbText
 10
76.7270619566
 20
2.4729579975
 30
0.0
 40
0.125
  1
[49.5mm]
100
AcDbText
  0
ENDBLK
  5
E0
100
AcDbEntity
  8
0
  6
CONTINUOUS
100
AcDbBlockEnd
  0
BLOCK
  5
E2
100
AcDbEntity
  8
0
100
AcDbBlockBegin
  2
*D7
 70
        65
 10
0.0
 20
0.0
 30
0.0
  3
*D7
  1

  0
POINT
  5
E4
100
AcDbEntity
  8
DEFPOINTS
  6
CONTINUOUS
 62
         0
100
AcDbPoint
 10
78.1930005769
 20
3.0212705293
 30
0.0
  0
POINT
  5
E5
100
AcDbEntity
  8
DEFPOINTS
  6
CONTINUOUS
 62
         0
100
AcDbPoint
 10
78.1930005769
 20
1.8638535766
 30
0.0
  0
POINT
  5
E6
100
AcDbEntity
  8
DEFPOINTS
  6
CONTINUOUS
 62
         0
100
AcDbPoint
 10
78.8710005779
 20
1.8941968655
 30
0.0
  0
LINE
  5
E7
100
AcDbEntity
  8
CK_LEVEL_1
  6
CONTINUOUS
 62
         2
100
AcDbLine
 10
78.1930005769
 20
1.9263535766
 30
0.0
 11
78.1930005769
 21
3.0525205293
 31
0.0
  0
LINE
  5
E8
100
AcDbEntity
  8
CK_LEVEL_1
  6
CONTINUOUS
 62
         2
100
AcDbLine
 10
78.8710005779
 20
1.9566968655
 30
0.0
 11
78.8710005779
 21
3.0525205293
 31
0.0
  0
LINE
  5
E9
100
AcDbEntity
  8
CK_LEVEL_1
  6
CONTINUOUS
 62
         2
100
AcDbLine
 10
78.1930005769
 20
3.0212705293
 30
0.0
 11
77.9430005769
 21
3.0212705293
 31
0.0
  0
3DFACE
  5
EA
100
AcDbEntity
  8
CK_LEVEL_1
  6
CONTINUOUS
 62
         2
100
AcDbFace
 10
78.1930005769
 20
3.0212705293
 30
0.0
 11
78.0680005769
 21
3.0025205293
 31
0.0
 12
78.0680005769
 22
3.0400205293
 32
0.0
 13
78.0680005769
 23
3.0400205293
 33
0.0
 70
         4
  0
LINE
  5
EB
100
AcDbEntity
  8
CK_LEVEL_1
  6
CONTINUOUS
 62
         2
100
AcDbLine
 10
78.8710005779
 20
3.0212705293
 30
0.0
 11
79.2444761787
 21
3.0212705293
 31
0.0
  0
3DFACE
  5
EC
100
AcDbEntity
  8
CK_LEVEL_1
  6
CONTINUOUS
 62
         2
100
AcDbFace
 10
78.8710005779
 20
3.0212705293
 30
0.0
 11
78.9960005779
 21
3.0400205293
 31
0.0
 12
78.9960005779
 22
3.0025205293
 32
0.0
 13
78.9960005779
 23
3.0025205293
 33
0.0
 70
         4
  0
TEXT
  5
ED
100
AcDbEntity
  8
CK_LEVEL_1
  6
CONTINUOUS
 62
         2
100
AcDbText
 10
79.3069761787
 20
3.0587705293
 30
0.0
 40
0.125
  1
   .68
100
AcDbText
  0
TEXT
  5
EE
100
AcDbEntity
  8
CK_LEVEL_1
  6
CONTINUOUS
 62
         2
100
AcDbText
 10
79.3069761787
 20
2.8587705293
 30
0.0
 40
0.125
  1
[17.3mm]
100
AcDbText
  0
ENDBLK
  5
EF
100
AcDbEntity
  8
0
  6
CONTINUOUS
100
AcDbBlockEnd
  0
ENDSEC
  0
SECTION
  2
ENTITIES
  0
TEXT
  5
27
100
AcDbEntity
  8
CK_LEVEL_1
  6
CONTINUOUS
 62
         3
100
AcDbText
 10
70.1589096183
 20
-11.889139641
 30
0.0
 40
0.25
  1
MZH3042
100
AcDbText
  0
DIMENSION
  5
2B
100
AcDbEntity
  8
CK_LEVEL_1
  6
CONTINUOUS
 62
         2
100
AcDbDimension
  2
*D0
 10
66.3615005779
 20
2.7895901933
 30
0.0
 11
66.7806504261
 21
2.8270901933
 31
0.0
  3
DIMSTYLE1
100
AcDbAlignedDimension
 13
66.3615005779
 23
1.8823569987
 33
0.0
 14
68.3085005779
 24
1.8638535766
 34
0.0
100
AcDbRotatedDimension
  0
LINE
  5
39
100
AcDbEntity
  8
CK_LEVEL_1
  6
CONTINUOUS
 62
         2
100
AcDbLine
 10
79.0294560135
 20
1.8681968655
 30
0.0
 11
79.0030467743
 21
1.5961968655
 31
0.0
  0
LINE
  5
3A
100
AcDbEntity
  8
CK_LEVEL_1
  6
CONTINUOUS
 62
         2
100
AcDbLine
 10
79.0030467743
 20
1.8681968655
 30
0.0
 11
78.976637535
 21
1.5961968655
 31
0.0
  0
LINE
  5
3B
100
AcDbEntity
  8
CK_LEVEL_1
  6
CONTINUOUS
 62
         2
100
AcDbLine
 10
78.976637535
 20
1.8681968655
 30
0.0
 11
78.9502282957
 21
1.5961968655
 31
0.0
  0
LINE
  5
3C
100
AcDbEntity
  8
CK_LEVEL_1
  6
CONTINUOUS
 62
         2
100
AcDbLine
 10
78.9502282957
 20
1.8681968655
 30
0.0
 11
78.9238190565
 21
1.5961968655
 31
0.0
  0
LINE
  5
3D
100
AcDbEntity
  8
CK_LEVEL_1
  6
CONTINUOUS
 62
         2
100
AcDbLine
 10
78.9238190565
 20
1.8681968655
 30
0.0
 11
78.8974098172
 21
1.5961968655
 31
0.0
  0
LINE
  5
3E
100
AcDbEntity
  8
CK_LEVEL_1
  6
CONTINUOUS
 62
         2
100
AcDbLine
 10
78.8974098172
 20
1.8681968655
 30
0.0
 11
78.8710005779
 21
1.5961968655
 31
0.0
  0
INSERT
  5
4B
100
AcDbEntity
  8
0
  6
CONTINUOUS
100
AcDbBlockReference
  2
GENDIML3
 10
0.0
 20
0.0
 30
0.0
  0
INSERT
  5
58
100
AcDbEntity
  8
0
  6
CONTINUOUS
100
AcDbBlockReference
  2
GENDIML4
 10
0.0
 20
0.0
 30
0.0
  0
DIMENSION
  5
5B
100
AcDbEntity
  8
CK_LEVEL_1
  6
CONTINUOUS
 62
         2
100
AcDbDimension
  2
*D3
 10
63.3995005779
 20
2.7895901933
 30
0.0
 11
64.4089527361
 21
2.8270901933
 31
0.0
  3
DIMSTYLE1
100
AcDbAlignedDimension
 13
63.3995005779
 23
2.1021968655
 33
0.0
 14
66.3615005779
 24
1.8823569987
 34
0.0
100
AcDbRotatedDimension
  0
LINE
  5
68
100
AcDbEntity
  8
CK_LEVEL_1
  6
CONTINUOUS
 62
       163
100
AcDbLine
 10
68.2612607995
 20
1.8486968655
 30
0.0
 11
68.3085005779
 21
1.6624693035
 31
0.0
  0
LINE
  5
69
100
AcDbEntity
  8
CK_LEVEL_1
  6
CONTINUOUS
 62
       163
100
AcDbLine
 10
68.1460334688
 20
1.8486968655
 30
0.0
 11
68.2051378691
 21
1.6156968655
 31
0.0
  0
LINE
  5
6A
100
AcDbEntity
  8
CK_LEVEL_1
  6
CONTINUOUS
 62
       163
100
AcDbLine
 10
68.0308061381
 20
1.8486968655
 30
0.0
 11
68.0899105384
 21
1.6156968655
 31
0.0
  0
LINE
  5
6B
100
AcDbEntity
  8
CK_LEVEL_1
  6
CONTINUOUS
 62
       163
100
AcDbLine
 10
67.9155788074
 20
1.8486968655
 30
0.0
 11
67.9746832077
 21
1.6156968655
 31
0.0
  0
LINE
  5
6C
100
AcDbEntity
  8
CK_LEVEL_1
  6
CONTINUOUS
 62
       163
100
AcDbLine
 10
67.8003514767
 20
1.8486968655
 30
0.0
 11
67.859455877
 21
1.6156968655
 31
0.0
  0
LINE
  5
6D
100
AcDbEntity
  8
CK_LEVEL_1
  6
CONTINUOUS
 62
       163
100
AcDbLine
 10
67.685124146
 20
1.8486968655
 30
0.0
 11
67.7442285463
 21
1.6156968655
 31
0.0
  0
LINE
  5
6E
100
AcDbEntity
  8
CK_LEVEL_1
  6
CONTINUOUS
 62
       163
100
AcDbLine
 10
67.5698968153
 20
1.8486968655
 30
0.0
 11
67.6290012156
 21
1.6156968655
 31
0.0
  0
LINE
  5
6F
100
AcDbEntity
  8
CK_LEVEL_1
  6
CONTINUOUS
 62
       163
100
AcDbLine
 10
67.4546694846
 20
1.8486968655
 30
0.0
 11
67.5137738849
 21
1.6156968655
 31
0.0
  0
LINE
  5
70
100
AcDbEntity
  8
CK_LEVEL_1
  6
CONTINUOUS
 62
       163
100
AcDbLine
 10
67.3394421539
 20
1.8486968655
 30
0.0
 11
67.3985465542
 21
1.6156968655
 31
0.0
  0
LINE
  5
71
100
AcDbEntity
  8
CK_LEVEL_1
  6
CONTINUOUS
 62
       163
100
AcDbLine
 10
67.2242148232
 20
1.8486968655
 30
0.0
 11
67.2833192235
 21
1.6156968655
 31
0.0
  0
LINE
  5
72
100
AcDbEntity
  8
CK_LEVEL_1
  6
CONTINUOUS
 62
       163
100
AcDbLine
 10
67.1089874925
 20
1.8486968655
 30
0.0
 11
67.1680918928
 21
1.6156968655
 31
0.0
  0
LINE
  5
73
100
AcDbEntity
  8
CK_LEVEL_1
  6
CONTINUOUS
 62
       163
100
AcDbLine
 10
66.9937601618
 20
1.8486968655
 30
0.0
 11
67.0528645621
 21
1.6156968655
 31
0.0
  0
LINE
  5
74
100
AcDbEntity
  8
CK_LEVEL_1
  6
CONTINUOUS
 62
       163
100
AcDbLine
 10
66.8785328311
 20
1.8486968655
 30
0.0
 11
66.9376372314
 21
1.6156968655
 31
0.0
  0
LINE
  5
75
100
AcDbEntity
  8
CK_LEVEL_1
  6
CONTINUOUS
 62
       163
100
AcDbLine
 10
66.7633055004
 20
1.8486968655
 30
0.0
 11
66.8224099007
 21
1.6156968655
 31
0.0
  0
LINE
  5
76
100
AcDbEntity
  8
CK_LEVEL_1
  6
CONTINUOUS
 62
       163
100
AcDbLine
 10
66.6480781697
 20
1.8486968655
 30
0.0
 11
66.70718257
 21
1.6156968655
 31
0.0
  0
LINE
  5
77
100
AcDbEntity
  8
CK_LEVEL_1
  6
CONTINUOUS
 62
       163
100
AcDbLine
 10
66.532850839
 20
1.8486968655
 30
0.0
 11
66.5919552393
 21
1.6156968655
 31
0.0
  0
LINE
  5
78
100
AcDbEntity
  8
CK_LEVEL_1
  6
CONTINUOUS
 62
       163
100
AcDbLine
 10
66.4176235083
 20
1.8486968655
 30
0.0
 11
66.4767279086
 21
1.6156968655
 31
0.0
  0
LINE
  5
79
100
AcDbEntity
  8
CK_LEVEL_1
  6
CONTINUOUS
 62
         3
100
AcDbLine
 10
59.7822885995
 20
-12.6723640418
 30
0.0
 11
81.7822885995
 21
-12.6723640418
 31
0.0
  0
LINE
  5
7A
100
AcDbEntity
  8
CK_LEVEL_1
  6
CONTINUOUS
 62
         3
100
AcDbLine
 10
59.7822885995
 20
4.3276359582
 30
0.0
 11
59.7822885995
 21
-12.6723640418
 31
0.0
  0
LINE
  5
7B
100
AcDbEntity
  8
CK_LEVEL_1
  6
CONTINUOUS
 62
         3
100
AcDbLine
 10
81.7822885995
 20
4.3276359582
 30
0.0
 11
59.7822885995
 21
4.3276359582
 31
0.0
  0
LINE
  5
7C
100
AcDbEntity
  8
CK_LEVEL_1
  6
CONTINUOUS
 62
         3
100
AcDbLine
 10
81.7822885995
 20
-12.6723640418
 30
0.0
 11
81.7822885995
 21
4.3276359582
 31
0.0
  0
LINE
  5
7D
100
AcDbEntity
  8
CK_LEVEL_1
  6
CONTINUOUS
 62
         3
100
AcDbLine
 10
66.0095105008
 20
1.9827242684
 30
0.0
 11
66.0095105008
 21
1.4816694626
 31
0.0
  0
LINE
  5
7E
100
AcDbEntity
  8
CK_LEVEL_1
  6
CONTINUOUS
 62
         3
100
AcDbLine
 10
66.0215005779
 20
1.9798293667
 30
0.0
 11
66.0215005779
 21
1.4845643643
 31
0.0
  0
LINE
  5
7F
100
AcDbEntity
  8
CK_LEVEL_1
  6
CONTINUOUS
 62
         3
100
AcDbLine
 10
66.3615005779
 20
1.8823569987
 30
0.0
 11
66.3615005779
 21
1.5820367323
 31
0.0
  0
LINE
  5
80
100
AcDbEntity
  8
CK_LEVEL_1
  6
CONTINUOUS
 62
         3
100
AcDbLine
 10
63.3995005779
 20
2.1021968655
 30
0.0
 11
63.3995005779
 21
1.3621968655
 31
0.0
  0
LINE
  5
81
100
AcDbEntity
  8
CK_LEVEL_1
  6
CONTINUOUS
 62
         4
100
AcDbLine
 10
76.2460005769
 20
1.8621968655
 30
0.0
 11
76.2460005769
 21
1.6021968655
 31
0.0
  0
LINE
  5
82
100
AcDbEntity
  8
CK_LEVEL_1
  6
CONTINUOUS
 62
         4
100
AcDbLine
 10
68.3085005779
 20
1.8621968655
 30
0.0
 11
68.3085005779
 21
1.6021968655
 31
0.0
  0
LINE
  5
83
100
AcDbEntity
  8
CK_LEVEL_1
  6
CONTINUOUS
 62
       163
100
AcDbLine
 10
79.0320005779
 20
1.8681968655
 30
0.0
 11
79.0320005779
 21
1.5961968655
 31
0.0
  0
LINE
  5
84
100
AcDbEntity
  8
CK_LEVEL_1
  6
CONTINUOUS
 62
       163
100
AcDbLine
 10
79.1720005779
 20
1.8496968655
 30
0.0
 11
79.1720005779
 21
1.6146968655
 31
0.0
  0
LINE
  5
85
100
AcDbEntity
  8
CK_LEVEL_1
  6
CONTINUOUS
 62
         3
100
AcDbLine
 10
78.8710005779
 20
1.8941968655
 30
0.0
 11
78.8710005779
 21
1.5701968655
 31
0.0
  0
LINE
  5
86
100
AcDbEntity
  8
CK_LEVEL_1
  6
CONTINUOUS
 62
         3
100
AcDbLine
 10
78.1930005769
 20
1.8638535766
 30
0.0
 11
78.1930005769
 21
1.6005401544
 31
0.0
  0
LINE
  5
87
100
AcDbEntity
  8
CK_LEVEL_1
  6
CONTINUOUS
 62
         3
100
AcDbLine
 10
63.3995005779
 20
2.1021968655
 30
0.0
 11
64.9995005779
 21
2.1021968655
 31
0.0
  0
LINE
  5
88
100
AcDbEntity
  8
CK_LEVEL_1
  6
CONTINUOUS
 62
         3
100
AcDbLine
 10
63.3995005779
 20
1.3621968655
 30
0.0
 11
64.9995005779
 21
1.3621968655
 31
0.0
  0
LINE
  5
89
100
AcDbEntity
  8
CK_LEVEL_1
  6
CONTINUOUS
 62
         4
100
AcDbLine
 10
69.5327856588
 20
1.8491968655
 30
0.0
 11
75.021715496
 21
1.8491968655
 31
0.0
  0
LINE
  5
8A
100
AcDbEntity
  8
CK_LEVEL_1
  6
CONTINUOUS
 62
         4
100
AcDbLine
 10
69.5327856588
 20
1.6151968655
 30
0.0
 11
75.021715496
 21
1.6151968655
 31
0.0
  0
LINE
  5
8B
100
AcDbEntity
  8
CK_LEVEL_1
  6
CONTINUOUS
 62
         6
100
AcDbLine
 10
76.2460005769
 20
1.6156968655
 30
0.0
 11
78.1930005769
 21
1.6156968655
 31
0.0
  0
LINE
  5
8C
100
AcDbEntity
  8
CK_LEVEL_1
  6
CONTINUOUS
 62
         6
100
AcDbLine
 10
76.2460005769
 20
1.8486968655
 30
0.0
 11
78.1930005769
 21
1.8486968655
 31
0.0
  0
LINE
  5
8D
100
AcDbEntity
  8
CK_LEVEL_1
  6
CONTINUOUS
 62
       163
100
AcDbLine
 10
79.0320005779
 20
1.6146968655
 30
0.0
 11
79.1720005779
 21
1.6146968655
 31
0.0
  0
LINE
  5
8E
100
AcDbEntity
  8
CK_LEVEL_1
  6
CONTINUOUS
 62
       163
100
AcDbLine
 10
79.0320005779
 20
1.8496968655
 30
0.0
 11
79.1720005779
 21
1.8496968655
 31
0.0
  0
LINE
  5
8F
100
AcDbEntity
  8
CK_LEVEL_1
  6
CONTINUOUS
 62
       163
100
AcDbLine
 10
78.8710005779
 20
1.5961968655
 30
0.0
 11
79.0320005779
 21
1.5961968655
 31
0.0
  0
LINE
  5
90
100
AcDbEntity
  8
CK_LEVEL_1
  6
CONTINUOUS
 62
       163
100
AcDbLine
 10
78.8710005779
 20
1.8681968655
 30
0.0
 11
79.0320005779
 21
1.8681968655
 31
0.0
  0
LINE
  5
91
100
AcDbEntity
  8
CK_LEVEL_1
  6
CONTINUOUS
 62
         6
100
AcDbLine
 10
66.3615005779
 20
1.6156968655
 30
0.0
 11
68.3085005779
 21
1.6156968655
 31
0.0
  0
LINE
  5
92
100
AcDbEntity
  8
CK_LEVEL_1
  6
CONTINUOUS
 62
         6
100
AcDbLine
 10
66.3615005779
 20
1.8486968655
 30
0.0
 11
68.3085005779
 21
1.8486968655
 31
0.0
  0
LINE
  5
93
100
AcDbEntity
  8
CK_LEVEL_1
  6
CONTINUOUS
 62
         3
100
AcDbLine
 10
66.0095105008
 20
1.9798293667
 30
0.0
 11
66.0215005779
 21
1.9798293667
 31
0.0
  0
LINE
  5
94
100
AcDbEntity
  8
CK_LEVEL_1
  6
CONTINUOUS
 62
         3
100
AcDbLine
 10
66.0095105008
 20
1.4845643643
 30
0.0
 11
66.0215005779
 21
1.4845643643
 31
0.0
  0
ARC
  5
95
100
AcDbEntity
  8
CK_LEVEL_1
  6
CONTINUOUS
 62
         3
100
AcDbCircle
 10
78.8710005779
 20
9.1600912655
 30
0.0
 40
7.5898944
100
AcDbArc
 50
264.874976246
 51
270.0
  0
ARC
  5
96
100
AcDbEntity
  8
CK_LEVEL_1
  6
CONTINUOUS
 62
         3
100
AcDbCircle
 10
78.8710005779
 20
-5.6956975345
 30
0.0
 40
7.5898944
100
AcDbArc
 50
90.0
 51
95.125023754
  0
ARC
  5
97
100
AcDbEntity
  8
CK_LEVEL_1
  6
CONTINUOUS
 62
         4
100
AcDbCircle
 10
68.7922301773
 20
10.7230329189
 30
0.0
 40
9.1336545062
100
AcDbArc
 50
266.9641245562
 51
273.9934603335
  0
ARC
  5
98
100
AcDbEntity
  8
CK_LEVEL_1
  6
CONTINUOUS
 62
         4
100
AcDbCircle
 10
68.7922301773
 20
-7.2586391879
 30
0.0
 40
9.1336545062
100
AcDbArc
 50
86.0065396665
 51
93.0358754438
  0
ARC
  5
99
100
AcDbEntity
  8
CK_LEVEL_1
  6
CONTINUOUS
 62
         4
100
AcDbCircle
 10
-69.5327856588
 20
0.1151968655
 30
0.0
 40
1.5
210
0.0
220
0.0
230
-1.0
100
AcDbArc
 50
86.0065396665
 51
90.0
  0
ARC
  5
9A
100
AcDbEntity
  8
CK_LEVEL_1
  6
CONTINUOUS
 62
         4
100
AcDbCircle
 10
-69.5327856588
 20
3.3491968655
 30
0.0
 40
1.5
210
0.0
220
0.0
230
-1.0
100
AcDbArc
 50
270.0
 51
273.9934603335
  0
ARC
  5
9B
100
AcDbEntity
  8
CK_LEVEL_1
  6
CONTINUOUS
 62
         4
100
AcDbCircle
 10
75.7622709775
 20
-7.2586391879
 30
0.0
 40
9.1336545062
100
AcDbArc
 50
86.9641245562
 51
93.9934603335
  0
ARC
  5
9C
100
AcDbEntity
  8
CK_LEVEL_1
  6
CONTINUOUS
 62
         4
100
AcDbCircle
 10
75.7622709775
 20
10.7230329189
 30
0.0
 40
9.1336545062
100
AcDbArc
 50
266.0065396665
 51
273.0358754438
  0
ARC
  5
9D
100
AcDbEntity
  8
CK_LEVEL_1
  6
CONTINUOUS
 62
         4
100
AcDbCircle
 10
-75.021715496
 20
3.3491968655
 30
0.0
 40
1.5
210
0.0
220
0.0
230
-1.0
100
AcDbArc
 50
266.0065396665
 51
270.0
  0
ARC
  5
9E
100
AcDbEntity
  8
CK_LEVEL_1
  6
CONTINUOUS
 62
         4
100
AcDbCircle
 10
-75.021715496
 20
0.1151968655
 30
0.0
 40
1.5
210
0.0
220
0.0
230
-1.0
100
AcDbArc
 50
90.0
 51
93.9934603335
  0
ARC
  5
9F
100
AcDbEntity
  8
CK_LEVEL_1
  6
CONTINUOUS
 62
         3
100
AcDbCircle
 10
64.9995005779
 20
5.6911968655
 30
0.0
 40
4.329
100
AcDbArc
 50
270.0
 51
283.4921727809
  0
ARC
  5
A0
100
AcDbEntity
  8
CK_LEVEL_1
  6
CONTINUOUS
 62
         3
100
AcDbCircle
 10
64.9995005779
 20
-2.2268031345
 30
0.0
 40
4.329
100
AcDbArc
 50
76.5078272191
 51
90.0
  0
ARC
  5
A1
100
AcDbEntity
  8
CK_LEVEL_1
  6
CONTINUOUS
 62
         3
100
AcDbCircle
 10
64.9995005779
 20
5.6911968655
 30
0.0
 40
4.329
100
AcDbArc
 50
283.6554254657
 51
288.3380147846
  0
ARC
  5
A2
100
AcDbEntity
  8
CK_LEVEL_1
  6
CONTINUOUS
 62
         3
100
AcDbCircle
 10
64.9995005779
 20
-2.2268031345
 30
0.0
 40
4.329
100
AcDbArc
 50
71.6619852154
 51
76.3445745343
  0
LINE
  5
A3
100
AcDbEntity
  8
CK_LEVEL_1
  6
CONTINUOUS
 62
       163
100
AcDbLine
 10
76.3021235072
 20
1.8486968655
 30
0.0
 11
76.3612279076
 21
1.6156968655
 31
0.0
  0
LINE
  5
A4
100
AcDbEntity
  8
CK_LEVEL_1
  6
CONTINUOUS
 62
       163
100
AcDbLine
 10
76.4173508379
 20
1.8486968655
 30
0.0
 11
76.4764552383
 21
1.6156968655
 31
0.0
  0
LINE
  5
A5
100
AcDbEntity
  8
CK_LEVEL_1
  6
CONTINUOUS
 62
       163
100
AcDbLine
 10
76.5325781686
 20
1.8486968655
 30
0.0
 11
76.591682569
 21
1.6156968655
 31
0.0
  0
LINE
  5
A6
100
AcDbEntity
  8
CK_LEVEL_1
  6
CONTINUOUS
 62
       163
100
AcDbLine
 10
76.6478054993
 20
1.8486968655
 30
0.0
 11
76.7069098997
 21
1.6156968655
 31
0.0
  0
LINE
  5
A7
100
AcDbEntity
  8
CK_LEVEL_1
  6
CONTINUOUS
 62
       163
100
AcDbLine
 10
76.76303283
 20
1.8486968655
 30
0.0
 11
76.8221372304
 21
1.6156968655
 31
0.0
  0
LINE
  5
A8
100
AcDbEntity
  8
CK_LEVEL_1
  6
CONTINUOUS
 62
       163
100
AcDbLine
 10
76.8782601607
 20
1.8486968655
 30
0.0
 11
76.9373645611
 21
1.6156968655
 31
0.0
  0
LINE
  5
A9
100
AcDbEntity
  8
CK_LEVEL_1
  6
CONTINUOUS
 62
       163
100
AcDbLine
 10
76.9934874914
 20
1.8486968655
 30
0.0
 11
77.0525918918
 21
1.6156968655
 31
0.0
  0
LINE
  5
AA
100
AcDbEntity
  8
CK_LEVEL_1
  6
CONTINUOUS
 62
       163
100
AcDbLine
 10
77.1087148221
 20
1.8486968655
 30
0.0
 11
77.1678192225
 21
1.6156968655
 31
0.0
  0
LINE
  5
AB
100
AcDbEntity
  8
CK_LEVEL_1
  6
CONTINUOUS
 62
       163
100
AcDbLine
 10
77.2239421528
 20
1.8486968655
 30
0.0
 11
77.2830465532
 21
1.6156968655
 31
0.0
  0
LINE
  5
AC
100
AcDbEntity
  8
CK_LEVEL_1
  6
CONTINUOUS
 62
       163
100
AcDbLine
 10
77.3391694835
 20
1.8486968655
 30
0.0
 11
77.3982738839
 21
1.6156968655
 31
0.0
  0
LINE
  5
AD
100
AcDbEntity
  8
CK_LEVEL_1
  6
CONTINUOUS
 62
       163
100
AcDbLine
 10
77.4543968142
 20
1.8486968655
 30
0.0
 11
77.5135012146
 21
1.6156968655
 31
0.0
  0
LINE
  5
AE
100
AcDbEntity
  8
CK_LEVEL_1
  6
CONTINUOUS
 62
       163
100
AcDbLine
 10
77.5696241449
 20
1.8486968655
 30
0.0
 11
77.6287285453
 21
1.6156968655
 31
0.0
  0
LINE
  5
AF
100
AcDbEntity
  8
CK_LEVEL_1
  6
CONTINUOUS
 62
       163
100
AcDbLine
 10
77.6848514756
 20
1.8486968655
 30
0.0
 11
77.743955876
 21
1.6156968655
 31
0.0
  0
LINE
  5
B0
100
AcDbEntity
  8
CK_LEVEL_1
  6
CONTINUOUS
 62
       163
100
AcDbLine
 10
77.8000788063
 20
1.8486968655
 30
0.0
 11
77.8591832067
 21
1.6156968655
 31
0.0
  0
LINE
  5
B1
100
AcDbEntity
  8
CK_LEVEL_1
  6
CONTINUOUS
 62
       163
100
AcDbLine
 10
77.915306137
 20
1.8486968655
 30
0.0
 11
77.9744105374
 21
1.6156968655
 31
0.0
  0
LINE
  5
B2
100
AcDbEntity
  8
CK_LEVEL_1
  6
CONTINUOUS
 62
       163
100
AcDbLine
 10
78.0305334677
 20
1.8486968655
 30
0.0
 11
78.0896378681
 21
1.6156968655
 31
0.0
  0
LINE
  5
B3
100
AcDbEntity
  8
CK_LEVEL_1
  6
CONTINUOUS
 62
       163
100
AcDbLine
 10
78.1457607984
 20
1.8486968655
 30
0.0
 11
78.1930005769
 21
1.6624693035
 31
0.0
  0
DIMENSION
  5
B6
100
AcDbEntity
  8
CK_LEVEL_1
  6
CONTINUOUS
 62
         2
100
AcDbDimension
  2
*D4
 10
63.3995005779
 20
3.3808859139
 30
0.0
 11
70.4994268403
 21
3.4183859139
 31
0.0
  3
DIMSTYLE1
100
AcDbAlignedDimension
 13
63.3995005779
 23
2.1021968655
 33
0.0
 14
78.8710005779
 24
1.8941968655
 34
0.0
100
AcDbRotatedDimension
  0
DIMENSION
  5
C5
100
AcDbEntity
  8
CK_LEVEL_1
  6
CONTINUOUS
 62
         2
100
AcDbDimension
  2
*D5
 10
76.2460005769
 20
2.6274060605
 30
0.0
 11
71.5352868986
 21
2.6649060605
 31
0.0
  3
DIMSTYLE1
100
AcDbAlignedDimension
 13
76.2460005769
 23
1.8621968655
 33
0.0
 14
68.3085005779
 24
1.8621968655
 34
0.0
100
AcDbRotatedDimension
  0
DIMENSION
  5
D4
100
AcDbEntity
  8
CK_LEVEL_1
  6
CONTINUOUS
 62
         2
100
AcDbDimension
  2
*D6
 10
76.2460005769
 20
2.6354579975
 30
0.0
 11
76.7270619566
 21
2.6729579975
 31
0.0
  3
DIMSTYLE1
100
AcDbAlignedDimension
 13
76.2460005769
 23
1.8621968655
 33
0.0
 14
78.1930005769
 24
1.8638535766
 34
0.0
100
AcDbRotatedDimension
  0
DIMENSION
  5
E3
100
AcDbEntity
  8
CK_LEVEL_1
  6
CONTINUOUS
 62
         2
100
AcDbDimension
  2
*D7
 10
78.1930005769
 20
3.0212705293
 30
0.0
 11
79.3069761787
 21
3.0587705293
 31
0.0
  3
DIMSTYLE1
100
AcDbAlignedDimension
 13
78.1930005769
 23
1.8638535766
 33
0.0
 14
78.8710005779
 24
1.8941968655
 34
0.0
100
AcDbRotatedDimension
  0
LINE
  5
F0
100
AcDbEntity
  8
CK_LEVEL_10
  6
CONTINUOUS
 62
         3
100
AcDbLine
 10
66.2285364161
 20
-8.7516627757
 30
0.0
 11
66.2285364161
 21
-8.7396726986
 31
0.0
  0
LINE
  5
F1
100
AcDbEntity
  8
CK_LEVEL_10
  6
CONTINUOUS
 62
         3
100
AcDbLine
 10
65.7332714137
 20
-8.7516627757
 30
0.0
 11
65.7332714137
 21
-8.7396726986
 31
0.0
  0
LINE
  5
F2
100
AcDbEntity
  8
CK_LEVEL_10
  6
CONTINUOUS
 62
       163
100
AcDbLine
 10
74.7505639909
 20
-0.1720126237
 30
0.0
 11
74.9115639909
 21
-0.1720126237
 31
0.0
  0
LINE
  5
F3
100
AcDbEntity
  8
CK_LEVEL_10
  6
CONTINUOUS
 62
       163
100
AcDbLine
 10
74.7505639909
 20
-0.4440126237
 30
0.0
 11
74.9115639909
 21
-0.4440126237
 31
0.0
  0
LINE
  5
F4
100
AcDbEntity
  8
CK_LEVEL_10
  6
CONTINUOUS
 62
       163
100
AcDbLine
 10
74.9115639909
 20
-0.1905126237
 30
0.0
 11
75.0515639909
 21
-0.1905126237
 31
0.0
  0
LINE
  5
F5
100
AcDbEntity
  8
CK_LEVEL_10
  6
CONTINUOUS
 62
       163
100
AcDbLine
 10
74.9115639909
 20
-0.4255126237
 30
0.0
 11
75.0515639909
 21
-0.4255126237
 31
0.0
  0
LINE
  5
F6
100
AcDbEntity
  8
CK_LEVEL_10
  6
CONTINUOUS
 62
         4
100
AcDbLine
 10
67.6554179805
 20
-5.8637861987
 30
0.0
 11
71.5366774899
 21
-1.9825266893
 31
0.0
  0
LINE
  5
F7
100
AcDbEntity
  8
CK_LEVEL_10
  6
CONTINUOUS
 62
         4
100
AcDbLine
 10
67.4899549937
 20
-5.6983232119
 30
0.0
 11
71.3712145031
 21
-1.8170637025
 31
0.0
  0
LINE
  5
F8
100
AcDbEntity
  8
CK_LEVEL_10
  6
CONTINUOUS
 62
         3
100
AcDbLine
 10
66.3509039149
 20
-11.3616726986
 30
0.0
 11
66.3509039149
 21
-9.7616726986
 31
0.0
  0
LINE
  5
F9
100
AcDbEntity
  8
CK_LEVEL_10
  6
CONTINUOUS
 62
         3
100
AcDbLine
 10
65.6109039149
 20
-11.3616726986
 30
0.0
 11
65.6109039149
 21
-9.7616726986
 31
0.0
  0
LINE
  5
FA
100
AcDbEntity
  8
CK_LEVEL_10
  6
CONTINUOUS
 62
         3
100
AcDbLine
 10
74.0725639899
 20
-0.4396693348
 30
0.0
 11
74.0725639899
 21
-0.1763559125
 31
0.0
  0
LINE
  5
FB
100
AcDbEntity
  8
CK_LEVEL_10
  6
CONTINUOUS
 62
         3
100
AcDbLine
 10
74.7505639909
 20
-0.4700126237
 30
0.0
 11
74.7505639909
 21
-0.1460126237
 31
0.0
  0
LINE
  5
FC
100
AcDbEntity
  8
CK_LEVEL_10
  6
CONTINUOUS
 62
       163
100
AcDbLine
 10
75.0515639909
 20
-0.4255126237
 30
0.0
 11
75.0515639909
 21
-0.1905126237
 31
0.0
  0
LINE
  5
FD
100
AcDbEntity
  8
CK_LEVEL_10
  6
CONTINUOUS
 62
       163
100
AcDbLine
 10
74.9115639909
 20
-0.4440126237
 30
0.0
 11
74.9115639909
 21
-0.1720126237
 31
0.0
  0
LINE
  5
FE
100
AcDbEntity
  8
CK_LEVEL_10
  6
CONTINUOUS
 62
         4
100
AcDbLine
 10
66.6150623228
 20
-6.5548311065
 30
0.0
 11
66.7989100859
 21
-6.7386788696
 31
0.0
  0
LINE
  5
FF
100
AcDbEntity
  8
CK_LEVEL_10
  6
CONTINUOUS
 62
         4
100
AcDbLine
 10
72.2277223977
 20
-0.9421710315
 30
0.0
 11
72.4115701609
 21
-1.1260187947
 31
0.0
  0
LINE
  5
100
100
AcDbEntity
  8
CK_LEVEL_10
  6
CONTINUOUS
 62
         3
100
AcDbLine
 10
65.6109039149
 20
-11.3616726986
 30
0.0
 11
66.3509039149
 21
-11.3616726986
 31
0.0
  0
LINE
  5
101
100
AcDbEntity
  8
CK_LEVEL_10
  6
CONTINUOUS
 62
         3
100
AcDbLine
 10
65.6109039149
 20
-9.7616726986
 30
0.0
 11
66.3509039149
 21
-9.7616726986
 31
0.0
  0
LINE
  5
102
100
AcDbEntity
  8
CK_LEVEL_10
  6
CONTINUOUS
 62
         3
100
AcDbLine
 10
65.8307437818
 20
-8.3996726986
 30
0.0
 11
66.1310640481
 21
-8.3996726986
 31
0.0
  0
LINE
  5
103
100
AcDbEntity
  8
CK_LEVEL_10
  6
CONTINUOUS
 62
         3
100
AcDbLine
 10
65.7332714137
 20
-8.7396726986
 30
0.0
 11
66.2285364161
 21
-8.7396726986
 31
0.0
  0
LINE
  5
104
100
AcDbEntity
  8
CK_LEVEL_10
  6
CONTINUOUS
 62
         3
100
AcDbLine
 10
65.730376512
 20
-8.7516627757
 30
0.0
 11
66.2314313178
 21
-8.7516627757
 31
0.0
  0
ARC
  5
105
100
AcDbEntity
  8
CK_LEVEL_10
  6
CONTINUOUS
 62
         3
100
AcDbCircle
 10
69.9399039149
 20
-9.7616726986
 30
0.0
 40
4.329
100
AcDbArc
 50
161.6619852154
 51
166.3445745343
  0
ARC
  5
106
100
AcDbEntity
  8
CK_LEVEL_10
  6
CONTINUOUS
 62
         3
100
AcDbCircle
 10
62.0219039149
 20
-9.7616726986
 30
0.0
 40
4.329
100
AcDbArc
 50
13.6554254657
 51
18.3380147846
  0
ARC
  5
107
100
AcDbEntity
  8
CK_LEVEL_10
  6
CONTINUOUS
 62
         3
100
AcDbCircle
 10
69.9399039149
 20
-9.7616726986
 30
0.0
 40
4.329
100
AcDbArc
 50
166.5078272191
 51
180.0
  0
ARC
  5
108
100
AcDbEntity
  8
CK_LEVEL_10
  6
CONTINUOUS
 62
         3
100
AcDbCircle
 10
62.0219039149
 20
-9.7616726986
 30
0.0
 40
4.329
100
AcDbArc
 50
0.0
 51
13.4921727809
  0
ARC
  5
109
100
AcDbEntity
  8
CK_LEVEL_10
  6
CONTINUOUS
 62
         4
100
AcDbCircle
 10
-72.5973376617
 20
-3.043186861
 30
0.0
 40
1.5
210
0.0
220
0.0
230
-1.0
100
AcDbArc
 50
45.0
 51
48.9934603335
  0
ARC
  5
10A
100
AcDbEntity
  8
CK_LEVEL_10
  6
CONTINUOUS
 62
         4
100
AcDbCircle
 10
-70.3105543313
 20
-0.7564035307
 30
0.0
 40
1.5
210
0.0
220
0.0
230
-1.0
100
AcDbArc
 50
221.0065396665
 51
225.0
  0
ARC
  5
10B
100
AcDbEntity
  8
CK_LEVEL_10
  6
CONTINUOUS
 62
         4
100
AcDbCircle
 10
65.6201166574
 20
4.9813377488
 30
0.0
 40
9.1336545062
100
AcDbArc
 50
311.0065396665
 51
318.0358754438
  0
ARC
  5
10C
100
AcDbEntity
  8
CK_LEVEL_10
  6
CONTINUOUS
 62
         4
100
AcDbCircle
 10
78.3350789412
 20
-7.733624535
 30
0.0
 40
9.1336545062
100
AcDbArc
 50
131.9641245562
 51
138.9934603335
  0
ARC
  5
10D
100
AcDbEntity
  8
CK_LEVEL_10
  6
CONTINUOUS
 62
         4
100
AcDbCircle
 10
-66.429294822
 20
-4.6376630401
 30
0.0
 40
1.5
210
0.0
220
0.0
230
-1.0
100
AcDbArc
 50
225.0
 51
228.9934603335
  0
ARC
  5
10E
100
AcDbEntity
  8
CK_LEVEL_10
  6
CONTINUOUS
 62
         4
100
AcDbCircle
 10
-68.7160781523
 20
-6.9244463704
 30
0.0
 40
1.5
210
0.0
220
0.0
230
-1.0
100
AcDbArc
 50
41.0065396665
 51
45.0
  0
ARC
  5
10F
100
AcDbEntity
  8
CK_LEVEL_10
  6
CONTINUOUS
 62
         4
100
AcDbCircle
 10
73.4065158263
 20
-12.6621876499
 30
0.0
 40
9.1336545062
100
AcDbArc
 50
131.0065396665
 51
138.0358754438
  0
ARC
  5
110
100
AcDbEntity
  8
CK_LEVEL_10
  6
CONTINUOUS
 62
         4
100
AcDbCircle
 10
60.6915535425
 20
0.0527746339
 30
0.0
 40
9.1336545062
100
AcDbArc
 50
311.9641245562
 51
318.9934603335
  0
ARC
  5
111
100
AcDbEntity
  8
CK_LEVEL_10
  6
CONTINUOUS
 62
         3
100
AcDbCircle
 10
74.7505639909
 20
-7.7359070237
 30
0.0
 40
7.5898944
100
AcDbArc
 50
90.0
 51
95.125023754
  0
ARC
  5
112
100
AcDbEntity
  8
CK_LEVEL_10
  6
CONTINUOUS
 62
         3
100
AcDbCircle
 10
74.7505639909
 20
7.1198817763
 30
0.0
 40
7.5898944
100
AcDbArc
 50
264.874976246
 51
270.0
  0
ARC
  5
113
100
AcDbEntity
  8
CK_LEVEL_10
  6
CONTINUOUS
 62
         6
100
AcDbCircle
 10
68.4599039149
 20
-8.3996726986
 30
0.0
 40
2.5955
100
AcDbArc
 50
135.0
 51
180.0
  0
ARC
  5
114
100
AcDbEntity
  8
CK_LEVEL_10
  6
CONTINUOUS
 62
         6
100
AcDbCircle
 10
-68.4599039149
 20
-8.3996726986
 30
0.0
 40
2.3625
210
0.0
220
0.0
230
-1.0
100
AcDbArc
 50
0.0
 51
45.0
  0
ARC
  5
115
100
AcDbEntity
  8
CK_LEVEL_10
  6
CONTINUOUS
 62
         6
100
AcDbCircle
 10
74.0725639899
 20
-2.7870126237
 30
0.0
 40
2.5955
100
AcDbArc
 50
90.0
 51
135.0
  0
ARC
  5
116
100
AcDbEntity
  8
CK_LEVEL_10
  6
CONTINUOUS
 62
         6
100
AcDbCircle
 10
-74.0725639899
 20
-2.7870126237
 30
0.0
 40
2.3625
210
0.0
220
0.0
230
-1.0
100
AcDbArc
 50
45.0
 51
90.0
  0
LINE
  5
117
100
AcDbEntity
  8
CK_LEVEL_1
  6
CONTINUOUS
 62
         2
100
AcDbLine
 10
74.7769732302
 20
-0.1720126237
 30
0.0
 11
74.7505639909
 21
-0.4440126237
 31
0.0
  0
LINE
  5
118
100
AcDbEntity
  8
CK_LEVEL_1
  6
CONTINUOUS
 62
         2
100
AcDbLine
 10
74.8033824694
 20
-0.1720126237
 30
0.0
 11
74.7769732302
 21
-0.4440126237
 31
0.0
  0
LINE
  5
119
100
AcDbEntity
  8
CK_LEVEL_1
  6
CONTINUOUS
 62
         2
100
AcDbLine
 10
74.8297917087
 20
-0.1720126237
 30
0.0
 11
74.8033824694
 21
-0.4440126237
 31
0.0
  0
LINE
  5
11A
100
AcDbEntity
  8
CK_LEVEL_1
  6
CONTINUOUS
 62
         2
100
AcDbLine
 10
74.856200948
 20
-0.1720126237
 30
0.0
 11
74.8297917087
 21
-0.4440126237
 31
0.0
  0
LINE
  5
11B
100
AcDbEntity
  8
CK_LEVEL_1
  6
CONTINUOUS
 62
         2
100
AcDbLine
 10
74.8826101872
 20
-0.1720126237
 30
0.0
 11
74.856200948
 21
-0.4440126237
 31
0.0
  0
LINE
  5
11C
100
AcDbEntity
  8
CK_LEVEL_1
  6
CONTINUOUS
 62
         2
100
AcDbLine
 10
74.9090194265
 20
-0.1720126237
 30
0.0
 11
74.8826101872
 21
-0.4440126237
 31
0.0
  0
LINE
  5
11D
100
AcDbEntity
  8
CK_LEVEL_1
  6
CONTINUOUS
 62
        23
100
AcDbLine
 10
66.5310715204
 20
-6.6629442098
 30
0.0
 11
66.7565036187
 21
-6.7626529428
 31
0.0
  0
LINE
  5
11E
100
AcDbEntity
  8
CK_LEVEL_1
  6
CONTINUOUS
 62
        23
100
AcDbLine
 10
66.442821572
 20
-6.7662716236
 30
0.0
 11
66.6731630753
 21
-6.8540455048
 31
0.0
  0
LINE
  5
11F
100
AcDbEntity
  8
CK_LEVEL_1
  6
CONTINUOUS
 62
        23
100
AcDbLine
 10
66.360100306
 20
-6.8740760763
 30
0.0
 11
66.5947198644
 21
-6.9496745236
 31
0.0
  0
LINE
  5
120
100
AcDbEntity
  8
CK_LEVEL_1
  6
CONTINUOUS
 62
        23
100
AcDbLine
 10
66.2831344558
 20
-6.9860620832
 30
0.0
 11
66.5213889933
 21
-7.0492778865
 31
0.0
  0
LINE
  5
121
100
AcDbEntity
  8
CK_LEVEL_1
  6
CONTINUOUS
 62
        23
100
AcDbLine
 10
66.2121349794
 20
-7.1019226986
 30
0.0
 11
66.4533714568
 21
-7.1525825878
 31
0.0
  0
LINE
  5
122
100
AcDbEntity
  8
CK_LEVEL_1
  6
CONTINUOUS
 62
        23
100
AcDbLine
 10
66.1472964814
 20
-7.2213403565
 30
0.0
 11
66.3908536863
 21
-7.2593054764
 31
0.0
  0
LINE
  5
123
100
AcDbEntity
  8
CK_LEVEL_1
  6
CONTINUOUS
 62
        23
100
AcDbLine
 10
66.0887966796
 20
-7.3439877415
 30
0.0
 11
66.3340070387
 21
-7.3691540323
 31
0.0
  0
LINE
  5
124
100
AcDbEntity
  8
CK_LEVEL_1
  6
CONTINUOUS
 62
        23
100
AcDbLine
 10
66.036795918
 20
-7.4695286855
 30
0.0
 11
66.2829873267
 21
-7.4818271682
 31
0.0
  0
LINE
  5
125
100
AcDbEntity
  8
CK_LEVEL_1
  6
CONTINUOUS
 62
        23
100
AcDbLine
 10
65.9914367269
 20
-7.5976190897
 30
0.0
 11
66.2379343917
 21
-7.5970160549
 31
0.0
  0
LINE
  5
126
100
AcDbEntity
  8
CK_LEVEL_1
  6
CONTINUOUS
 62
        23
100
AcDbLine
 10
65.9528434328
 20
-7.727907867
 30
0.0
 11
66.1989717207
 21
-7.7144049677
 31
0.0
  0
LINE
  5
127
100
AcDbEntity
  8
CK_LEVEL_1
  6
CONTINUOUS
 62
        23
100
AcDbLine
 10
65.9211218172
 20
-7.8600379051
 30
0.0
 11
66.1662061077
 21
-7.8336721517
 31
0.0
  0
LINE
  5
128
100
AcDbEntity
  8
CK_LEVEL_1
  6
CONTINUOUS
 62
        23
100
AcDbLine
 10
65.8963588269
 20
-7.9936470446
 30
0.0
 11
66.139727361
 21
-7.9544907038
 31
0.0
  0
LINE
  5
129
100
AcDbEntity
  8
CK_LEVEL_1
  6
CONTINUOUS
 62
        23
100
AcDbLine
 10
65.8786223355
 20
-8.1283690722
 30
0.0
 11
66.1196080569
 21
-8.0765294689
 31
0.0
  0
LINE
  5
12A
100
AcDbEntity
  8
CK_LEVEL_1
  6
CONTINUOUS
 62
        23
100
AcDbLine
 10
65.8679609575
 20
-8.2638347242
 30
0.0
 11
66.1059033411
 21
-8.199453947
 31
0.0
  0
LINE
  5
12B
100
AcDbEntity
  8
CK_LEVEL_1
  6
CONTINUOUS
 62
        23
100
AcDbLine
 10
65.8644039149
 20
-8.3996726986
 30
0.0
 11
66.0986507773
 21
-8.3229272109
 31
0.0
  0
LINE
  5
12C
100
AcDbEntity
  8
CK_LEVEL_1
  6
CONTINUOUS
 62
        23
100
AcDbLine
 10
73.9367260154
 20
-0.1950696662
 30
0.0
 11
74.0256258596
 21
-0.4249789529
 31
0.0
  0
LINE
  5
12D
100
AcDbEntity
  8
CK_LEVEL_1
  6
CONTINUOUS
 62
        23
100
AcDbLine
 10
73.8012603634
 20
-0.2057310442
 30
0.0
 11
73.9020708959
 21
-0.4306725899
 31
0.0
  0
LINE
  5
12E
100
AcDbEntity
  8
CK_LEVEL_1
  6
CONTINUOUS
 62
        23
100
AcDbLine
 10
73.6665383358
 20
-0.2234675356
 30
0.0
 11
73.7789832418
 21
-0.4428247911
 31
0.0
  0
LINE
  5
12F
100
AcDbEntity
  8
CK_LEVEL_1
  6
CONTINUOUS
 62
        23
100
AcDbLine
 10
73.5329291963
 20
-0.248230526
 30
0.0
 11
73.6567002722
 21
-0.4614022482
 31
0.0
  0
LINE
  5
130
100
AcDbEntity
  8
CK_LEVEL_1
  6
CONTINUOUS
 62
        23
100
AcDbLine
 10
73.4007991583
 20
-0.2799521415
 30
0.0
 11
73.5355571561
 21
-0.4863540417
 31
0.0
  0
LINE
  5
131
100
AcDbEntity
  8
CK_LEVEL_1
  6
CONTINUOUS
 62
        23
100
AcDbLine
 10
73.270510381
 20
-0.3185454356
 30
0.0
 11
73.4158859384
 21
-0.5176117805
 31
0.0
  0
LINE
  5
132
100
AcDbEntity
  8
CK_LEVEL_1
  6
CONTINUOUS
 62
        23
100
AcDbLine
 10
73.1424199768
 20
-0.3639046267
 30
0.0
 11
73.2980146297
 21
-0.5550897893
 31
0.0
  0
LINE
  5
133
100
AcDbEntity
  8
CK_LEVEL_1
  6
CONTINUOUS
 62
        23
100
AcDbLine
 10
73.0168790328
 20
-0.4159053883
 30
0.0
 11
73.1822663069
 21
-0.5986853434
 31
0.0
  0
LINE
  5
134
100
AcDbEntity
  8
CK_LEVEL_1
  6
CONTINUOUS
 62
        23
100
AcDbLine
 10
72.8942316478
 20
-0.4744051901
 30
0.0
 11
73.0689582281
 21
-0.6482789504
 31
0.0
  0
LINE
  5
135
100
AcDbEntity
  8
CK_LEVEL_1
  6
CONTINUOUS
 62
        23
100
AcDbLine
 10
72.7748139899
 20
-0.5392436881
 30
0.0
 11
72.958400963
 21
-0.7037346778
 31
0.0
  0
LINE
  5
136
100
AcDbEntity
  8
CK_LEVEL_1
  6
CONTINUOUS
 62
        23
100
AcDbLine
 10
72.6589533745
 20
-0.6102431646
 30
0.0
 11
72.8508975413
 21
-0.7649005253
 31
0.0
  0
LINE
  5
137
100
AcDbEntity
  8
CK_LEVEL_1
  6
CONTINUOUS
 62
        23
100
AcDbLine
 10
72.5469673675
 20
-0.6872090148
 30
0.0
 11
72.7467426224
 21
-0.8316088414
 31
0.0
  0
LINE
  5
138
100
AcDbEntity
  8
CK_LEVEL_1
  6
CONTINUOUS
 62
        23
100
AcDbLine
 10
72.4391629149
 20
-0.7699302807
 30
0.0
 11
72.6462216877
 21
-0.9036767834
 31
0.0
  0
LINE
  5
139
100
AcDbEntity
  8
CK_LEVEL_1
  6
CONTINUOUS
 62
        23
100
AcDbLine
 10
72.3358355011
 20
-0.8581802291
 30
0.0
 11
72.5496102581
 21
-0.9809068181
 31
0.0
  0
LINE
  5
13A
100
AcDbEntity
  8
CK_LEVEL_1
  6
CONTINUOUS
 62
        23
100
AcDbLine
 10
72.2372683393
 20
-0.9517169731
 30
0.0
 11
72.4571731389
 21
-1.0630872632
 31
0.0
  0
ENDSEC
  0
SECTION
  2
OBJECTS
  0
DICTIONARY
  5
19
100
AcDbDictionary
  3
ACAD_GROUP
350
1A
  3
ACAD_MLINESTYLE
350
1B
  0
DICTIONARY
  5
1A
102
{ACAD_REACTORS
330
19
102
}
100
AcDbDictionary
  0
DICTIONARY
  5
1B
102
{ACAD_REACTORS
330
19
102
}
100
AcDbDictionary
  3
STANDARD
350
1C
  0
MLINESTYLE
  5
1C
102
{ACAD_REACTORS
330
1B
102
}
100
AcDbMlineStyle
  2
STANDARD
 70
         0
  3

 62
         0
 51
90.0
 52
90.0
 71
         2
 49
0.5
 62
       256
  6
BYLAYER
 49
-0.5
 62
       256
  6
BYLAYER
  0
ENDSEC
  0
EOF
